Мастер класс ильи нодия торрент

Добавлено: 18.08.2017, 17:37 / Просмотров: 82263

Илья Нодия | Как снять историю? Практикум Ильи Нодия. Мастер Класс (2016) PCRec -Автор (режиссер): Илья Нодия
Производство: ProfileSchool
Жанр: Обучающее видео
Описание:
Нетривиальная идея съемок, крутая локация, харизматичная фактурная модель, съемочный процесс изнутри и детальный цикл «крутой» обработки — что может быть лучше? Три дня этого безумия и три реальных проекта от а до я!
Мастер-классы «в поле» — самые полезные: всегда интересно видеть, «из какого сора» вырастают качественные снимки. А что, если это будут не просто хорошие кадры, а яркие узнаваемые работы самого «западного» фотографа на отечественной сцене — Ильи Нодия, то есть, возможность увидеть весь процесс создания реальных фотопроектов, которые снимаются для портфолио автора? Мы долго «охотились» за такой возможностью и, наконец, счастливы пригласить вас на первый в истории школы трехдневный онлайн-класс по «съемке в поле» с последующей обработкой трех разных проектов, трех разных историй.
Это — не учебные проекты, а три дня «из жизни» реальных: как создать из замкнутого и не очень красивого помещения фактурную локацию, обогатив её мастер класс ильи нодия торрент сюжетом и харизматичными персонажами? Как не бояться работать в сложных и темных пространствах и добиваться рекламного качества картинок без привлечения большого продакшена, используя всего пару вспышек и штатив? Какие следует учитывать технические нюансы: от цифр и настроек — до железа и вспышек, насадок, объективов и камер. Как создать историю в кадре? Как делать художественную обработку?
Продолжительность: 12:00:00
Качество видео: PCRec
Видео: AVC/H.264, 1920x1080, 845 Kbps
Аудио: AAC, 2 ch, 128 Kbps, 48.0 KHz

Mediainfo:

General
Complete name : E:\torrents\Nodia_history_mk-2016 День Часть.mp4
Format : MPEG-4
Format profile : Base Media / Version 2
Codec ID : mp42 (isom/iso2/avc1/mp41)
File size : 661 MiB
Duration : 1 h 34 min
Overall bit rate mode : Variable
Overall bit rate : 979 kb/s
Encoded date : UTC 2016-09-27 15:55:27
Tagged date : UTC 2016-09-27 15:55:27
Writing application : HandBrake 0.10.5 2016021100
Video
ID : 1
Format : AVC
Format/Info : Advanced Video Codec
Format profile : Main@L4
Format settings, CABAC : Yes
Format settings, ReFrames : 4 frames
Codec ID : avc1
Codec ID/Info : Advanced Video Coding
Duration : 1 h 34 min
Bit rate : 845 kb/s
Width : 1 920 pixels
Height : 1 080 pixels
Display aspect ratio : 16:9
Frame rate mode : Constant
Frame rate : 24.000 FPS
Color space : YUV
Chroma subsampling : 4:2:0
Bit depth : 8 bits
Scan type : Progressive
Bits/(PixelFrame) : 0.017
Stream size : 570 MiB (86%)
Writing library : x264 core 142 r2479 dd79a61
Encoding settings : cabac=1 / ref=1 / deblock=1:0:0 / analyse=0x1:0x111 / me=hex / subme=2 / psy=1 / psy_rd=1.00:0.00 / mixed_ref=0 / me_range=16 / chroma_me=1 / trellis=0 / 8x8dct=0 / cqm=0 / deadzone=21,11 / fast_pskip=1 / chroma_qp_offset=0 / threads=6 / lookahead_threads=2 / sliced_threads=0 / nr=0 / decimate=1 / interlaced=0 / bluray_compat=0 / constrained_intra=0 / bframes=3 / b_pyramid=2 / b_adapt=1 / b_bias=0 / direct=1 / weightb=1 / open_gop=0 / weightp=1 / keyint=240 / keyint_min=24 / scenecut=40 / intra_refresh=0 / rc_lookahead=10 / rc=2pass / mbtree=1 / bitrate=845 / ratetol=1.0 / qcomp=0.60 / qpmin=0 / qpmax=69 / qpstep=4 / cplxblur=20.0 / qblur=0.5 / vbv_maxrate=20000 / vbv_bufsize=25000 / nal_hrd=none / filler=0 / ip_ratio=1.40 / aq=1:1.00
Encoded date : UTC 2016-09-27 15:55:27
Tagged date : UTC 2016-09-27 15:55:27
Color range : Limited
Color primaries : BT.709
Transfer characteristics : BT.709
Matrix coefficients : BT.709
Audio
ID : 2
Format : AAC
Format/Info : Advanced Audio Codec
Format profile : LC
Codec ID : 40
Duration : 1 h 34 min
Bit rate mode : Variable
Bit rate : 128 kb/s
Channel(s) : 2 channels
Channel positions : Front: L R
Sampling rate : 44.1 kHz
Frame rate : 43.066 FPS (1024 spf)
Compression mode : Lossy
Stream size : 86.7 MiB (13%)
Title : Stereo / Stereo
Language : English
Default : Yes
Alternate group : 1
Encoded date : UTC 2016-09-27 15:55:27
Tagged date : UTC 2016-09-27 15:55:27

ЧЕМУ ВЫ НАУЧИТЕСЬ?:

-Работа со вспышками.
-Панорамирование.
-Монтаж и компоузинг.
-Съемка в ноутбук.
-Художественные приемы обработки.
-Извлечение сочной фактуры из отснятых материалов.
-Ретушь.
-Получение крутого цвета.

ПРОГРАММА МАСТЕР-КЛАССА.:

1 ДЕНЬ.
-Знакомство, кратко о съемке, обзор техники.
-Съемка в апартаментах в Москва-сити.
-Кинематографичная сцена.
2 ДЕНЬ.
-Съемка в мастерских.
-Постановочный полноростовой портрет с верстаком и костюмом.
-Портрет и экшн-сцена с героем, одетым в костюм бетмена.
3 ДЕНЬ.
-Разбор полетов и смотр материала.
-Обработка снимков.

Скриншоты:
Время раздачи: 18:00-24:00 (до появления первых 3-5 скачавших)
Скачать

Источник: http://realmt.org/viewtopic.php?t=976916


Закрыть ... [X]

Мастер-класс Ильи Нодия - коммерческая Как замедлить рост тела в домашних условиях


Мастер класс ильи нодия торрент Илья Нодия - Торрент-трекер : NNM-Club
Мастер класс ильи нодия торрент Аренда полки для продажи handmade
Мастер класс ильи нодия торрент ВЫКРОЙКИ ЛЕКАЛА САПР
Мастер класс ильи нодия торрент Валяние войлока Основы мокрого валяния для
Мастер класс ильи нодия торрент Вышивка
Вязание на пальцах - Страна Мам Домашний Тренинг - Как накачать мышцы в домашних условиях Как нарисовать Винкс Рисуем героев Винкс поэтапно карандашом Кладка печи из кирпича своими руками: пошаговое руководство Неофициальный сайт куклы Тильда. Все о тильде. Выкройки Объемные узоры для вязания спицами